http://www.imdb.com/title/tt0068408/

Titulo original Conquest of the Planet of the Apes
Ano 1972
Duracion 85 min.
Pais Estados Unidos
Director J. Lee Thompson
Guion Paul Dehn (Personajes: Pierre Boulle)
Musica Tom Scott
Fotografia Bruce Surtees
Reparto Roddy McDowall, Don Murray, Natalie Trundy, Ricardo Montalban, Hari Rhodes, Severn Darden
Productora 20th Century Fox
Genero Ciencia ficcion. Fantastico. Aventuras | Secuela. Simios
Sinopsis Estados Unidos, 1991. Tras una epidemia que mato a todos los gatos y perros de la Tierra, los hombres adoptaron como mascotas a los monos, que acabaron convertidos en sirvientes. Se creo' entonces un centro para domesticar a los ejemplares salvajes por medio de la violencia y del electroshock. Armando ha criado en secreto a Cesar, el hijo de dos simios parlantes: Zira y Cornelius. Cuando Cesar comprueba lo que los hombres estan haciendo con los de su especie, manifiesta publicamente su desacuerdo y, desde entonces, se ve obligado a ocultarse. Cuando descubre que puede comunicarse con los suyos telepaticamente, empieza a organizar una insurreccion: incita a los suyos a la desobediencia general, los arma y comineza a vislumbrar que la inteligencia es poder.


Format : Matroska
Format version : Version 4 / Version 2
File size : 2.40 GiB
Duration : 1h 27mn
Overall bit rate : 3 925 Kbps
Movie name : La rebelion de los simios (1972) FULL 1080p
Encoded date : UTC 2014-04-22 16:04:06
Writing application : mkvmerge v6.5.0 ('Isn't she lovely') built on Oct 20 2013 12:50:05
Writing library : libebml v1.3.0 + libmatroska v1.4.1
Video
ID : 1
Format : AVC
Format/Info : Advanced Video Codec
Format profile : High@L4.1
Format settings, CABAC : Yes
Format settings, ReFrames : 2 frames
Codec ID : V_MPEG4/ISO/AVC
Duration : 1h 27mn
Bit rate : 2 951 Kbps
Width : 1 920 pixels
Height : 1 080 pixels
Display aspect ratio : 16:9
Frame rate mode : Constant
Frame rate : 23.976 fps
Color space : YUV
Chroma subsampling : 4:2:0
Bit depth : 8 bits
Scan type : Progressive
Bits/(Pixel*Frame) : 0.059
Stream size : 1.80 GiB (75%)
Title : WwW.CinemaniaHD.org
Writing library : x264 core
Default : Yes
Forced : No
Color primaries : BT.709
Transfer characteristics : BT.709
Matrix coefficients : BT.709
Audio #1
ID : 2
Format : AC-3
Format/Info : Audio Coding 3
Mode extension : CM (complete main)
Format settings, Endianness : Big
Codec ID : A_AC3
Duration : 1h 27mn
Bit rate mode : Constant
Bit rate : 448 Kbps
Channel count : 2 channels
Channel positions : Front: L R
Sampling rate : 48.0 KHz
Bit depth : 16 bits
Compression mode : Lossy
Stream size : 280 MiB (11%)
Title : Audio Latino
Language : Spanish
Default : Yes
Forced : No
Audio #2
ID : 3
Format : AC-3
Format/Info : Audio Coding 3
Mode extension : CM (complete main)
Format settings, Endianness : Big
Codec ID : A_AC3
Duration : 1h 27mn
Bit rate mode : Constant
Bit rate : 448 Kbps
Channel count : 6 channels
Channel positions : Front: L C R, Side: L R, LFE
Sampling rate : 48.0 KHz
Bit depth : 16 bits
Compression mode : Lossy
Stream size : 280 MiB (11%)
Title : Audio Ingles
Language : English
Default : No
Forced : No
Text #1
ID : 4
Format : UTF-8
Codec ID : S_TEXT/UTF8
Codec ID/Info : UTF-8 Plain Text
Default : Yes
Forced : No
Text #2
ID : 5
Format : PGS
Muxing mode : zlib
Codec ID : S_HDMV/PGS
Codec ID/Info : The same subtitle format used on BDs/HD-DVDs
Title : Subtitulos Latino
Language : Spanish
Default : No
Forced : No
Text #3
ID : 6
Format : PGS
Muxing mode : zlib
Codec ID : S_HDMV/PGS
Codec ID/Info : The same subtitle format used on BDs/HD-DVDs
Title : Subtitulos Ingles
Language : English
Default : No
Forced : No











http://www.uploadable.ch/file/VQGhah...dd4.part01.rar
http://www.uploadable.ch/file/yfZkWA...dd4.part02.rar
http://www.uploadable.ch/file/B576QW...dd4.part03.rar
http://www.uploadable.ch/file/UyACTD...dd4.part04.rar
http://www.uploadable.ch/file/W5zsEg...dd4.part05.rar
http://www.uploadable.ch/file/Azecyr...dd4.part06.rar
http://www.uploadable.ch/file/4EsKu3...dd4.part07.rar
http://www.uploadable.ch/file/TBRwpN...dd4.part08.rar
http://www.uploadable.ch/file/trzSBp...dd4.part09.rar
http://www.uploadable.ch/file/VUyjmQ...dd4.part10.rar