http://www.imdb.com/title/tt0356150/

Titulo original Eurotrip
Ano 2004
Duracion 90 min.
Pais Estados Unidos
Director Jeff Schaffer
Guion Alec Berg, David Mandel, Jeff Schaffer
Musica James L. Venable
Fotografia David Eggby
Reparto Scott Mechlowicz, Jacob Pitts, Michelle Trachtenberg, Travis Wester, Matt Damon, Lucy Lawless, Vinnie Jones, Kristin Kreuk, Molly Schade, Jessica Boehrs
Productora DreamWorks Pictures
Genero Comedia | Adolescencia. Comedia juvenil
Sinopsis Scotty Thomas y varios amigos del instituto viajan desde Estados Unidos a Europa para conocer a una amiga alemana de Scotty, con la que se escribe a traves de internet. Cuando Scotty descubre que la chica es muy atractiva y esta enamorada de el, decide emprender un viaje bastante disparatado a Berlin.


Format : Matroska
Format version : Version 4 / Version 2
File size : 2.45 GiB
Duration : 1h 30mn
Overall bit rate : 3 894 Kbps
Movie name : Eurotrip (2004) [FULL 1080p Dual]
Encoded date : UTC 2013-11-20 13:53:48
Writing application : mkvmerge v6.0.0 ('Coming Up For Air') built on Jan 20 2013 09:52:00
Writing library : libebml v1.3.0 + libmatroska v1.4.0
Video
ID : 1
Format : AVC
Format/Info : Advanced Video Codec
Format profile : High@L4.1
Format settings, CABAC : Yes
Format settings, ReFrames : 2 frames
Codec ID : V_MPEG4/ISO/AVC
Duration : 1h 30mn
Bit rate : 2 920 Kbps
Width : 1 920 pixels
Height : 1 080 pixels
Display aspect ratio : 16:9
Frame rate mode : Constant
Frame rate : 23.976 fps
Color space : YUV
Chroma subsampling : 4:2:0
Bit depth : 8 bits
Scan type : Progressive
Bits/(Pixel*Frame) : 0.059
Stream size : 1.84 GiB (75%)
Writing library : x264 core
Default : Yes
Forced : No
Color primaries : BT.709
Transfer characteristics : BT.709
Matrix coefficients : BT.709
Audio #1
ID : 2
Format : AC-3
Format/Info : Audio Coding 3
Mode extension : CM (complete main)
Format settings, Endianness : Big
Codec ID : A_AC3
Duration : 1h 30mn
Bit rate mode : Constant
Bit rate : 448 Kbps
Channel count : 6 channels
Channel positions : Front: L C R, Side: L R, LFE
Sampling rate : 48.0 KHz
Bit depth : 16 bits
Compression mode : Lossy
Stream size : 289 MiB (12%)
Title : Audio Latino
Default : Yes
Forced : No
Audio #2
ID : 3
Format : AC-3
Format/Info : Audio Coding 3
Mode extension : CM (complete main)
Format settings, Endianness : Big
Codec ID : A_AC3
Duration : 1h 30mn
Bit rate mode : Constant
Bit rate : 448 Kbps
Channel count : 6 channels
Channel positions : Front: L C R, Side: L R, LFE
Sampling rate : 48.0 KHz
Bit depth : 16 bits
Compression mode : Lossy
Stream size : 289 MiB (12%)
Title : Audio Ingles
Default : No
Forced : No
Text #1
ID : 4
Format : VobSub
Muxing mode : zlib
Codec ID : S_VOBSUB
Codec ID/Info : The same subtitle format used on DVDs
Title : Subtitulos Latino
Default : No
Forced : No
Text #2
ID : 5
Format : VobSub
Muxing mode : zlib
Codec ID : S_VOBSUB
Codec ID/Info : The same subtitle format used on DVDs
Title : Subtitulos Ingles
Default : No
Forced : No
Text #3
ID : 6
Format : UTF-8
Codec ID : S_TEXT/UTF8
Codec ID/Info : UTF-8 Plain Text
Default : Yes
Forced : No











http://www.uploadable.ch/file/VwBm6e...ghd.part01.rar
http://www.uploadable.ch/file/gzW9fF...ghd.part02.rar
http://www.uploadable.ch/file/D4ssT9...ghd.part03.rar
http://www.uploadable.ch/file/bmWFFn...ghd.part04.rar
http://www.uploadable.ch/file/gHRTfq...ghd.part05.rar
http://www.uploadable.ch/file/5THxrq...ghd.part06.rar
http://www.uploadable.ch/file/Du8CEA...ghd.part07.rar
http://www.uploadable.ch/file/ByscuN...ghd.part08.rar
http://www.uploadable.ch/file/rvZgRk...ghd.part09.rar
http://www.uploadable.ch/file/fjAqV3...ghd.part10.rar