http://www.imdb.com/title/tt0104431/

Titulo original Home Alone 2: Lost in New York
Ano 1992
Duracion 113 min.
Pais Estados Unidos
Director Chris Columbus
Guion John Hughes
Musica John Williams
Fotografia Julio Macat
Reparto Macaulay Culkin, Joe Pesci, Daniel Stern, John Heard, Catherine O'Hara, Tim Curry, Devin Ratray, Brenda Fricker, Eddie Bracken, Rob Schneider
Productora 20th Century Fox. Productor: John Hughes
Genero Comedia. Infantil | Navidad. Secuela
Sinopsis En plenas fiestas navidenas, el pequeno Kevin y su familia estan a punto de coger un avion para disfrutar de unas pequenas vacaciones, pero Kevin se equivoca y embarca en un avion que lo lleva a Nueva York, donde vuelve a encontrarse solo y desprotegido


Complete name : Home Alone 2 (1992) [FULL 1080p Dual]
Format : Matroska
Format version : Version 4 / Version 2
File size : 3.25 GiB
Duration : 2h 0mn
Overall bit rate : 3 880 Kbps
Movie name : Home Alone (1992) [FULL 1080p Dual]
Encoded date : UTC 2013-11-28 17:48:25
Writing application : mkvmerge v6.0.0 ('Coming Up For Air') built on Jan 20 2013 09:52:00
Writing library : libebml v1.3.0 + libmatroska v1.4.0
Video
ID : 1
Format : AVC
Format/Info : Advanced Video Codec
Format profile : High@L4.1
Format settings, CABAC : Yes
Format settings, ReFrames : 2 frames
Codec ID : V_MPEG4/ISO/AVC
Duration : 2h 0mn
Bit rate : 2 907 Kbps
Width : 1 920 pixels
Height : 1 080 pixels
Display aspect ratio : 16:9
Frame rate mode : Constant
Frame rate : 23.976 fps
Color space : YUV
Chroma subsampling : 4:2:0
Bit depth : 8 bits
Scan type : Progressive
Bits/(Pixel*Frame) : 0.058
Stream size : 2.44 GiB (75%)
Writing library : x264 core
Default : Yes
Forced : No
Color primaries : BT.709
Transfer characteristics : BT.709
Matrix coefficients : BT.709
Audio #1
ID : 2
Format : AC-3
Format/Info : Audio Coding 3
Mode extension : CM (complete main)
Format settings, Endianness : Big
Codec ID : A_AC3
Duration : 2h 0mn
Bit rate mode : Constant
Bit rate : 448 Kbps
Channel count : 6 channels
Channel positions : Front: L C R, Side: L R, LFE
Sampling rate : 48.0 KHz
Bit depth : 16 bits
Compression mode : Lossy
Stream size : 385 MiB (12%)
Title : Audio Latino
Default : Yes
Forced : No
Audio #2
ID : 3
Format : AC-3
Format/Info : Audio Coding 3
Mode extension : CM (complete main)
Format settings, Endianness : Big
Codec ID : A_AC3
Duration : 2h 0mn
Bit rate mode : Constant
Bit rate : 448 Kbps
Channel count : 6 channels
Channel positions : Front: L C R, Side: L R, LFE
Sampling rate : 48.0 KHz
Bit depth : 16 bits
Compression mode : Lossy
Stream size : 385 MiB (12%)
Title : Audio Ingles
Default : No
Forced : No
Text #1
ID : 4
Format : VobSub
Muxing mode : zlib
Codec ID : S_VOBSUB
Codec ID/Info : The same subtitle format used on DVDs
Title : Subtitulos Latino
Default : No
Forced : No
Text #2
ID : 5
Format : VobSub
Muxing mode : zlib
Codec ID : S_VOBSUB
Codec ID/Info : The same subtitle format used on DVDs
Title : Subtitulos Ingles
Default : No
Forced : No
Text #3
ID : 6
Format : UTF-8
Codec ID : S_TEXT/UTF8
Codec ID/Info : UTF-8 Plain Text
Default : Yes
Forced : No













http://www.uploadable.ch/file/FUSbP7...2hd.part01.rar
http://www.uploadable.ch/file/arn6h2...2hd.part02.rar
http://www.uploadable.ch/file/SuTn4E...2hd.part03.rar
http://www.uploadable.ch/file/TJc5cA...2hd.part04.rar
http://www.uploadable.ch/file/8MUpKk...2hd.part05.rar
http://www.uploadable.ch/file/YbB52t...2hd.part06.rar
http://www.uploadable.ch/file/XeM4tz...2hd.part07.rar
http://www.uploadable.ch/file/ZGufqQ...2hd.part08.rar
http://www.uploadable.ch/file/4yBSgY...2hd.part09.rar
http://www.uploadable.ch/file/A6mbQK...2hd.part10.rar
http://www.uploadable.ch/file/7kYaES...2hd.part11.rar
http://www.uploadable.ch/file/FJp7FR...2hd.part12.rar
http://www.uploadable.ch/file/jnYBRX...2hd.part13.rar
http://www.uploadable.ch/file/xkG7dj...2hd.part14.rar